当前位置:网站首页 >更多 >动画 > 正文

[动画]哆啦A梦:大雄的南极冰冰凉大冒险[国粤日/简繁中字]2017.1080p.BluRay.x264.DTS-WiKi 8.5GB

作者:精品资源网日期:2017-11-23 分类:动画



◎译  名 哆啦A梦:大雄的南极冰冰凉大冒险/哆啦A梦:大雄的南极冰寒大冒险

◎片  名 ドラえもん のび太の南極カチコチ大冒険

◎年  代 2017

◎产  地 日本

◎类  别 动画/冒险

◎语  言 日语

◎上映日期 2017-03-04(日本)/2017-05-30(中国大陆)

◎IMDb评分 6.8/10 from 172 users

◎IMDb链接 http://www.imdb.com/title/tt5912470/

◎豆瓣评分 6.6/10 from 13,520 users

◎豆瓣链接 https://movie.douban.com/subject/26839466/

◎片  长 101分钟

◎导  演 高桥敦史 Atsushi Takahashi

◎主  演 水田山葵 Wasabi Mizuta

大原惠美 Megumi Oohara

嘉数由美 Yumi Kakazu

木村昴 Subaru Kimura

关智一 Tomokazu Seki

千秋 Chiaki

钉宫理惠 Rie Kugimiya

金井美香 Mika Kanai

三石琴乃 Kotono Mitsuishi

◎简  介

为了躲避夏日的酷暑,哆啦A梦(水天葵 配音)带着大雄(大原惠美 配音)、静香(嘉薮由美 配音)、胖虎(木村昴 配音)和小夫(关智一 配音)来到了漂浮在南太平洋中的一座冰山上。他们利用道具“冰雕工艺组”打造了惊险刺激而又妙趣横生的游乐园,小伙伴们乐而忘返。可就在此时,乐园突然垮塌,大雄则偶然从冰层中捡到了一枚金环。根据调查发现,金环居然是十万年前的产物。为了寻找它的主人,哆啦A梦一行穿越时空。在古老的南极,他们见到了一座神秘都市,并发现了奇怪的生物。

而他们此次的冒险,将与自身以及地球的命运息息相关……

Video
ID : 1
Format : AVC
Format/Info : Advanced Video Codec
Format profile : [email protected]
Format settings : CABAC / 4 Ref Frames
Format settings, CABAC : Yes
Format settings, ReFrames : 4 frames
Codec ID : V_MPEG4/ISO/AVC
Duration : 1 h 40 min
Bit rate : 10.5 Mb/s
Width : 1 920 pixels
Height : 1 080 pixels
Display aspect ratio : 16:9
Frame rate mode : Constant
Frame rate : 23.976 (24000/1001) FPS
Color space : YUV
Chroma subsampling : 4:2:0
Bit depth : 8 bits
Scan type : Progressive
Bits/(Pixel*Frame) : 0.210
Stream size : 7.37 GiB (87%)
Writing library : x264 core 129 r2245+704+36 8e61944 tMod+MixAQ [[email protected]:2:0 X86_64]
Encoding settings : cabac=1 / ref=4 / deblock=1:-1:-1 / analyse=0x3:0x133 / me=umh / subme=11 / psy=1 / fade_compensate=0.00 / psy_rd=0.60:0.00 / mixed_ref=1 / me_range=64 / chroma_me=1 / trellis=2 / 8x8dct=1 / cqm=0 / deadzone=21,11 / fast_pskip=0 / chroma_qp_offset=-2 / threads=18 / lookahead_threads=3 / sliced_threads=0 / nr=0 / decimate=0 / interlaced=0 / bluray_compat=0 / constrained_intra=0 / fgo=0 / bframes=10 / b_pyramid=2 / b_adapt=2 / b_bias=0 / direct=3 / weightb=1 / open_gop=0 / weightp=2 / keyint=250 / keyint_min=23 / scenecut=40 / intra_refresh=0 / rc=2pass / mbtree=0 / bitrate=10462 / ratetol=1.0 / qcomp=0.70 / qpmin=0 / qpmax=69 / qpstep=4 / cplxblur=20.0 / qblur=0.5 / ip_ratio=1.40 / pb_ratio=1.30 / aq=1 / aq-strength=0.95 / aq-sensitivity=10.00 / aq-ifactor=1.00 / aq-pfactor=1.00 / aq-bfactor=1.00 / aq2=0
Language : Japanese
Default : Yes
Forced : No

Audio #1
ID : 2
Format : DTS
Format/Info : Digital Theater Systems
Codec ID : A_DTS
Duration : 1 h 40 min
Bit rate mode : Constant
Bit rate : 768 kb/s
Channel(s) : 6 channels
Channel positions : Front: L C R, Side: L R, LFE
Sampling rate : 48.0 kHz
Frame rate : 93.750 FPS (512 SPF)
Bit depth : 24 bits
Compression mode : Lossy
Stream size : 554 MiB (6%)
Language : Japanese
Default : Yes
Forced : No

Audio #2
ID : 3
Format : AC-3
Format/Info : Audio Coding 3
Codec ID : A_AC3
Duration : 1 h 40 min
Bit rate mode : Constant
Bit rate : 640 kb/s
Channel(s) : 6 channels
Channel positions : Front: L C R, Side: L R, LFE
Sampling rate : 48.0 kHz
Frame rate : 31.250 FPS (1536 SPF)
Bit depth : 16 bits
Compression mode : Lossy
Stream size : 462 MiB (5%)
Title : Cantonese
Language : Chinese
Service kind : Complete Main
Default : No
Forced : No

Audio #3
ID : 4
Format : AC-3
Format/Info : Audio Coding 3
Codec ID : A_AC3
Duration : 1 h 40 min
Bit rate mode : Constant
Bit rate : 192 kb/s
Channel(s) : 2 channels
Channel positions : Front: L R
Sampling rate : 48.0 kHz
Frame rate : 31.250 FPS (1536 SPF)
Bit depth : 16 bits
Compression mode : Lossy
Stream size : 139 MiB (2%)
Title : Mandarin
Language : Chinese
Service kind : Complete Main
Default : No
Forced : No

Text #1
ID : 5
Format : UTF-8
Codec ID : S_TEXT/UTF8
Codec ID/Info : UTF-8 Plain Text
Duration : 1 h 40 min
Bit rate : 44 b/s
Count of elements : 1365
Stream size : 32.9 KiB (0%)
Title : Mandarin_Simplified
Language : Chinese
Default : Yes
Forced : No

Text #2
ID : 6
Format : UTF-8
Codec ID : S_TEXT/UTF8
Codec ID/Info : UTF-8 Plain Text
Duration : 1 h 40 min
Bit rate : 44 b/s
Count of elements : 1365
Stream size : 32.9 KiB (0%)
Title : Mandarin_Traditional
Language : Chinese
Default : No
Forced : No

Text #3
ID : 7
Format : UTF-8
Codec ID : S_TEXT/UTF8
Codec ID/Info : UTF-8 Plain Text
Duration : 1 h 40 min
Bit rate : 49 b/s
Count of elements : 1452
Stream size : 36.7 KiB (0%)
Title : Cantonese_Simplified
Language : Chinese
Default : No
Forced : No

Text #4
ID : 8
Format : UTF-8
Codec ID : S_TEXT/UTF8
Codec ID/Info : UTF-8 Plain Text
Duration : 1 h 40 min
Bit rate : 49 b/s
Count of elements : 1452
Stream size : 36.7 KiB (0%)
Title : Cantonese_Traditional
Language : Chinese
Default : No
Forced : No

Menu
00:00:00.000 : en:00:00:00.000
00:09:56.637 : en:00:09:56.637
00:17:24.877 : en:00:17:24.877
00:21:49.016 : en:00:21:49.016
00:28:04.683 : en:00:28:04.683
00:33:54.532 : en:00:33:54.532
00:39:47.259 : en:00:39:47.259
00:49:16.953 : en:00:49:16.953
00:54:24.594 : en:00:54:24.594
00:58:08.818 : en:00:58:08.818
01:04:17.144 : en:01:04:17.144
01:10:45.282 : en:01:10:45.282
01:18:47.597 : en:01:18:47.597
01:24:24.058 : en:01:24:24.058
01:28:42.066 : en:01:28:42.066
01:35:54.749 : en:01:35:54.749
01:40:27.021 : en:01:40:27.021

[网盘分流]
请大家从网盘下载后将文件移至BT或电驴文件夹用eMule做种,让更多人下载
网盘下载 :
http://www.2pan.cc/file-411396.html|http://www.feemoo.com/file-1620891.html|http://www.yimuhe.com/file-4200931.html




取消回复欢迎 发表评论:

请填写验证码
本站会员尊享VIP特权,现在就加入我们吧!登录注册
登录
用户名
密码
注册
用户名
密码
确认密码
昵称
邮箱
QQ
验证码
请先 登录 再评论,若不是会员请先 注册